coor
一代宗师

[2010] [欧美] [剧情] [BD-1080P] 本性杀手 Killer.by.Nature.2010.1080p.BluRay.x264.DTS-FGT 8.52GB

-->



◎译  名 本性杀手
◎片  名 Killer by Nature
◎年  代 2010
◎产  地 美国
◎类  别 剧情 / 爱情 / 惊悚 / 犯罪 / 冒险
◎语  言 英语
◎上映日期 2009
◎IMDb评分 3.7/10 from 265 users
◎IMDb链接 https://www.imdb.com/title/tt0844866
◎豆瓣评分 5.0/10 from 51 users
◎豆瓣链接 https://movie.douban.com/subject/3601154/
◎导  演 Douglas S. Younglove
◎编  剧 Douglas S. Younglove
◎主  演 扎克瑞·雷·谢尔曼 Zachary Ray Sherman
      朗·普尔曼 Ron Perlman
      阿曼德·阿山特 Armand Assante
      林·沙烨 Lin Shaye
      海利·哈德森 Haley Hudson


◎标  签 悬疑 | 美国 | 惊悚 | 美国电影 | 电影 | Ron_Perlman | 差 | 2012

◎简  介

  曾经出现在年轻的男主角噩梦中的谋杀案突然有一天开始出现在他的现实中的小镇。以前这种血糊糊的谋杀案只是发生在男主角心智相对不舒服的时候,但是现在他们越过潜意识来到了他的现实生活中,让他的生活处于一个恐怖状态...

Video
ID : 1
Format : AVC
Format/Info : Advanced Video Codec
Format profile : [email protected]
Format settings : CABAC / 4 Ref Frames
Format settings, CABAC : Yes
Format settings, Reference frames : 4 frames
Codec ID : V_MPEG4/ISO/AVC
Duration : 1 h 33 min
Bit rate : 11.5 Mb/s
Width : 1 920 pixels
Height : 1 036 pixels
Display aspect ratio : 1.85:1
Frame rate mode : Constant
Frame rate : 23.976 (24000/1001/189150) FPS
Color space : YUV
Chroma subsampling : 4:2:0
Bit depth : 8 bits
Scan type : Progressive
Bits/(Pixel*Frame) : 0.241
Stream size : 7.53 GiB (88%)
Title : Killer.by.Nature.2010.1080p.BluRay.x264.DTS-FGT
Writing library : x264 core 148 r2795M aaa9aa8
Encoding settings : cabac=1 / ref=4 / deblock=1:-2:-2 / analyse=0x3:0x113 / me=umh / subme=9 / psy=1 / psy_rd=1.00:0.15 / mixed_ref=1 / me_range=16 / chroma_me=1 / trellis=2 / 8x8dct=1 / cqm=0 / deadzone=21,11 / fast_pskip=1 / chroma_qp_offset=-3 / threads=24 / lookahead_threads=3 / sliced_threads=0 / nr=0 / decimate=1 / interlaced=0 / bluray_compat=0 / constrained_intra=0 / bframes=3 / b_pyramid=2 / b_adapt=1 / b_bias=0 / direct=3 / weightb=1 / open_gop=0 / weightp=2 / keyint=250 / keyint_min=25 / scenecut=40 / intra_refresh=0 / rc_lookahead=50 / rc=2pass / mbtree=1 / bitrate=11500 / ratetol=1.0 / qcomp=0.60 / qpmin=0 / qpmax=69 / qpstep=4 / cplxblur=20.0 / qblur=0.5 / vbv_maxrate=31250 / vbv_bufsize=31250 / nal_hrd=none / filler=0 / ip_ratio=1.40 / aq=1:1.00
Language : English
Default : Yes
Forced : No

Audio
ID : 2
Format : DTS
Format/Info : Digital Theater Systems
Codec ID : A_DTS
Duration : 1 h 33 min
Bit rate mode : Constant
Bit rate : 1 509 kb/s
Channel(s) : 6 channels
Channel layout : C L R Ls Rs LFE
Sampling rate : 48.0 kHz
Frame rate : 93.750 FPS (512 SPF)
Bit depth : 24 bits
Compression mode : Lossy
Stream size : 1 013 MiB (12%)
Title : Killer.by.Nature.2010.1080p.BluRay.x264.DTS-FGT
Language : English
Default : No
Forced : No

Menu
00:00:00.000 : en:Chapter 01
00:06:08.868 : en:Chapter 02
00:16:42.584 : en:Chapter 03
00:28:58.653 : en:Chapter 04
00:44:28.624 : en:Chapter 05
00:54:47.659 : en:Chapter 06
01:14:04.523 : en:Chapter 07
01:25:46.766 : en:Chapter 08





1 个附件 售价 大小 下载 时间

Killer.by.Nature.2010.1080p.BluRay.x264.DTS-FGT.torrent 0 金币 85.69K 119 次 22天前

#1楼
发帖时间:2020-07-12 17:13:33   |   回复数:1
911degrees
隐世仙人♂
非常感谢,谢谢分享
22天前 #2楼
游客组