coor
一代宗师

[2007] [欧美] [剧情] [BD-1080P] 霍乱时期的爱情/爱在瘟疫蔓延时 Love.in.the.Time.of.Cholera.2007.1080p.BluRay.x264.DTS-FGT 7.53G

-->



◎译  名 霍乱时期的爱情 / 爱在瘟疫蔓延时
◎片  名 Love in the Time of Cholera
◎年  代 2007
◎产  地 美国
◎类  别 剧情 / 爱情
◎语  言 英语
◎上映日期 2007-11-16(美国)
◎IMDb评分 6.4/10 from 22140 users
◎IMDb链接 https://www.imdb.com/title/tt0484740
◎豆瓣评分 7.4/10 from 35081 users
◎豆瓣链接 https://movie.douban.com/subject/2002743/
◎片  长 139 分钟
◎导  演 迈克·内威尔 Mike Newell
◎编  剧 罗纳德·哈伍德 Ronald Harwood / 加夫列尔·加西亚·马尔克斯 Gabriel García Márquez
◎主  演 哈维尔·巴登 Javier Bardem
      乔凡娜·梅索兹殴诺 Giovanna Mezzogiorno
      列维·施瑞博尔 Liev Schreiber
      约翰·雷吉扎莫 John Leguizamo
      本杰明·布拉特 Benjamin Bratt
      劳拉·哈灵 Laura Harring
      卡特琳娜·桑地诺·莫雷诺 Catalina Sandino Moreno


◎标  签 爱情 | 霍乱时期的爱情 | 美国 | 小说改编 | 美国电影 | 名著改编 | 马尔克斯 | 2007

◎简  介

  长达半个世纪的爱情故事。
  19世纪末期哥伦比亚的喀他赫纳,电报员Florentino Ariza(Javier Bardem 饰)爱上了富商的女儿Fermina Daza(Giovanna Mezzogiorno 饰),他用热情洋溢的情书打动了Fermina Daza的心,二人迅速相恋。然而,由于身份地位的悬殊,Fermina Daza不得不屈从于父亲,离开了喀他赫纳,在年轻的Fermina Daza看来,二人的爱情只是少不更事的幻觉而已。
  几年后,Fermina Daza在父亲的安排下,嫁给了有好感的医生Dr. Juvenal Urbino(Benjamin Bratt 饰)。正值霍乱时期,一个医生丈夫不仅能带来优渥的生活,更是生命有力的保障。Fermina Daza渐渐忘记了当年的事情。可是Florentino Ariza却没有忘记,当年一无所有的青涩少年,继承了伯父的遗产,成为富有的船商,他经历着不同的女人,但是内心却对Fermina Daza念念不忘,他能做的事情,就是等待,等待重逢的那一天,纵然五十多年过去,对她的心意还一如往昔。

◎获奖情况

  第65届金球奖(2008)
  电影类 最佳原创歌曲(提名) 夏奇拉 / Antonio Pinto

Video
ID : 1
Format : AVC
Format/Info : Advanced Video Codec
Format profile : [email protected]
Format settings : CABAC / 5 Ref Frames
Format settings, CABAC : Yes
Format settings, Reference frames : 5 frames
Codec ID : V_MPEG4/ISO/AVC
Duration : 2 h 18 min
Bit rate : 6 124 kb/s
Width : 1 920 pixels
Height : 800 pixels
Display aspect ratio : 2.40:1
Frame rate mode : Constant
Frame rate : 23.976 (24000/1001/189150) FPS
Color space : YUV
Chroma subsampling : 4:2:0
Bit depth : 8 bits
Scan type : Progressive
Bits/(Pixel*Frame) : 0.166
Stream size : 5.92 GiB (79%)
Writing library : x264 core 118 r2085 8a62835
Encoding settings : cabac=1 / ref=5 / deblock=1:-1:-1 / analyse=0x3:0x133 / me=umh / subme=7 / psy=1 / psy_rd=1.00:0.00 / mixed_ref=1 / me_range=16 / chroma_me=1 / trellis=1 / 8x8dct=1 / cqm=0 / deadzone=21,11 / fast_pskip=0 / chroma_qp_offset=-2 / threads=12 / sliced_threads=0 / nr=0 / decimate=1 / interlaced=0 / bluray_compat=0 / constrained_intra=0 / bframes=3 / b_pyramid=2 / b_adapt=1 / b_bias=0 / direct=3 / weightb=1 / open_gop=0 / weightp=2 / keyint=250 / keyint_min=23 / scenecut=40 / intra_refresh=0 / rc_lookahead=40 / rc=crf / mbtree=1 / crf=20.0 / qcomp=0.60 / qpmin=0 / qpmax=69 / qpstep=4 / ip_ratio=1.40 / aq=1:1.00
Language : English
Default : Yes
Forced : No

Audio
ID : 2
Format : DTS
Format/Info : Digital Theater Systems
Codec ID : A_DTS
Duration : 2 h 18 min
Bit rate mode : Constant
Bit rate : 1 509 kb/s
Channel(s) : 6 channels
Channel layout : C L R Ls Rs LFE
Sampling rate : 48.0 kHz
Frame rate : 93.750 FPS (512 SPF)
Bit depth : 24 bits
Compression mode : Lossy
Stream size : 1.46 GiB (19%)
Language : English
Default : Yes
Forced : No

Text
ID : 3
Format : UTF-8
Codec ID : S_TEXT/UTF8
Codec ID/Info : UTF-8 Plain Text
Language : English
Default : Yes
Forced : No





1 个附件 售价 大小 下载 时间

Love.in.the.Time.of.Cholera.2007.1080p.BluRay.x264.DTS-FGT.torrent 0 金币 75.96K 721 次 22天前

#1楼
发帖时间:2020-07-12 17:19:31   |   回复数:1
911degrees
隐世仙人♂
非常感谢,谢谢分享
22天前 #2楼
游客组