travismk
一代宗师

[2017] [其他] [科幻] [WEB-1080P] 恐怖星系/银河的恐惧 Galaxy.Of.Horrors.2017.1080p.AMZN.WEBRip.DDP5.1.x264-MRCS 6.54GB

-->

帖子完整标题:恐怖星系/银河的恐惧 Galaxy.Of.Horrors.2017.1080p.AMZN.WEBRip.DDP5.1.x264-MRCS 6.54GB



◎译  名 恐怖星系/银河的恐惧
◎片  名 Galaxy of Horrors
◎年  代 2017
◎产  地 加拿大
◎类  别 科幻 / 恐怖
◎语  言 英语,意大利语,德语
◎上映日期 2017-03-07(加拿大)
◎IMDb评分 4.6/10 from 706 users
◎IMDb链接 https://www.imdb.com/title/tt6188002/
◎豆瓣评分 6.0/10 from 119 users
◎豆瓣链接 https://movie.douban.com/subject/26964992/
◎片  长 105分钟
◎导  演 Javier Chillón / Marinko Spahic
◎编  剧 Javier Chillón / Ethan Shaftel / Marinko Spahic
◎主  演 弗朗西斯科·加里多 Francesc Garrido

◎标  签 科幻 | 恐怖 | 加拿大 | 2017 | 惊悚 | 灾难 | 加拿大电影 | 恐怖惊悚悬疑重口血腥

◎简  介

  Trapped in a damaged cryogenic pod, a man is forced to watch a series of horrific science-fiction tales while his life support systems run out. Featuring eight intense stories of the unknown and other-worldly, equally wonderful and terrifying. Visit the GALAXY OF HORRORS, if you dare! Curated from Rue Morgue & Unstable Ground's Little Terrors Festival.

Video
ID : 1
Format : AVC
Format/Info : Advanced Video Codec
Format profile : [email protected]
Format settings : CABAC / 4 Ref Frames
Format settings, CABAC : Yes
Format settings, Reference frames : 4 frames
Codec ID : V_MPEG4/ISO/AVC
Duration : 1 h 46 min
Bit rate mode : Constant
Bit rate : 8 168 kb/s
Nominal bit rate : 10 000 kb/s
Width : 1 920 pixels
Height : 1 080 pixels
Display aspect ratio : 16:9
Frame rate mode : Constant
Frame rate : 24.000 FPS
Color space : YUV
Chroma subsampling : 4:2:0
Bit depth : 8 bits
Scan type : Progressive
Bits/(Pixel*Frame) : 0.164
Stream size : 6.06 GiB (93%)
Default : Yes
Forced : No
Color range : Limited
Color primaries : BT.709
Transfer characteristics : BT.709
Matrix coefficients : BT.709

Audio
ID : 2
Format : E-AC-3
Format/Info : Enhanced AC-3
Commercial name : Dolby Digital Plus
Codec ID : A_EAC3
Duration : 1 h 46 min
Bit rate mode : Constant
Bit rate : 640 kb/s
Channel(s) : 6 channels
Channel layout : L R C LFE Ls Rs
Sampling rate : 48.0 kHz
Frame rate : 31.250 FPS (1536 SPF)
Compression mode : Lossy
Stream size : 486 MiB (7%)
Language : English
Service kind : Complete Main
Default : Yes
Forced : No

Text
ID : 3
Format : UTF-8
Codec ID : S_TEXT/UTF8
Codec ID/Info : UTF-8 Plain Text
Duration : 1 h 44 min
Bit rate : 33 b/s
Count of elements : 810
Stream size : 25.2 KiB (0%)
Title : SDH
Language : English
Default : No
Forced : No





1 个附件 售价 大小 下载 时间

Galaxy.Of.Horrors.2017.1080p.AMZN.WEBRip.DDP5.1.x264-MRCS.zip 0 金币 33.42K 1001 次 1月前

#1楼
发帖时间:2021-04-12 19:40:29   |   回复数:0
游客组