travismk
一代宗师

[2017] [欧美] [剧情] [WEB-1080P] 恶魔承办人 Demonia.Undertaker.2017.1080p.AMZN.WEBRip.DDP2.0.x264-SYMBIOTES 5.98GB

-->

帖子完整标题:恶魔承办人 Demonia.Undertaker.2017.1080p.AMZN.WEBRip.DDP2.0.x264-SYMBIOTES 5.98GB



◎译  名 恶魔承办人
◎片  名 Demonia Undertaker
◎年  代 2017
◎产  地 美国
◎类  别 剧情 / 动作 / 科幻
◎语  言 英语
◎上映日期 2017-08(美国)
◎IMDb评分 3.3/10 from 91 users
◎IMDb链接 https://www.imdb.com/title/tt4851360/
◎豆瓣评分 /10 from 0 users
◎豆瓣链接 https://movie.douban.com/subject/30411691/
◎片  长 80分钟

◎简  介

  Alien bounty hunters from another planet are sent to stop Tanash, a possessed demonic serial killer who comes to earth to take over the bodies of humans before killing them. Staleth, played by Geovanni Molina and Colinus, played by Jay D Lee, are sent to stop him as Earth's only hope.

Video
ID : 1
Format : AVC
Format/Info : Advanced Video Codec
Format profile : [email protected]
Format settings : CABAC / 4 Ref Frames
Format settings, CABAC : Yes
Format settings, Reference frames : 4 frames
Codec ID : V_MPEG4/ISO/AVC
Duration : 1 h 43 min
Bit rate mode : Constant
Bit rate : 8 039 kb/s
Nominal bit rate : 10 000 kb/s
Width : 1 920 pixels
Height : 800 pixels
Display aspect ratio : 2.40:1
Frame rate mode : Constant
Frame rate : 24.000 FPS
Color space : YUV
Chroma subsampling : 4:2:0
Bit depth : 8 bits
Scan type : Progressive
Bits/(Pixel*Frame) : 0.218
Stream size : 5.82 GiB (97%)
Default : Yes
Forced : No
Color range : Limited
Color primaries : BT.709
Transfer characteristics : BT.709
Matrix coefficients : BT.709

Audio
ID : 2
Format : E-AC-3
Format/Info : Enhanced AC-3
Commercial name : Dolby Digital Plus
Codec ID : A_EAC3
Duration : 1 h 43 min
Bit rate mode : Constant
Bit rate : 224 kb/s
Channel(s) : 2 channels
Channel layout : L R
Sampling rate : 48.0 kHz
Frame rate : 31.250 FPS (1536 SPF)
Compression mode : Lossy
Stream size : 166 MiB (3%)
Language : English
Service kind : Complete Main
Default : Yes
Forced : No

Text
ID : 3
Format : UTF-8
Codec ID : S_TEXT/UTF8
Codec ID/Info : UTF-8 Plain Text
Duration : 1 h 40 min
Bit rate : 54 b/s
Count of elements : 1450
Stream size : 40.1 KiB (0%)
Title : SDH
Language : English
Default : No
Forced : No





1 个附件 售价 大小 下载 时间

Demonia.Undertaker.2017.1080p.AMZN.WEBRip.DDP2.0.x264-SYMBIOTES.zip 0 金币 30.66K 462 次 1月前

#1楼
发帖时间:2021-04-12 19:44:29   |   回复数:1
liyouchai
隐世仙人♂
谢谢楼主分享资源
1月前 #2楼
游客组