travismk
一代宗师

[2017] [欧美] [科幻] [WEB-1080P] 鬼女艾拉/艾拉 Ayla.2017.1080p.AMZN.WEBRip.DDP2.0.x264-MRCS 4.20GB

-->

帖子完整标题:鬼女艾拉/艾拉 Ayla.2017.1080p.AMZN.WEBRip.DDP2.0.x264-MRCS 4.20GB



◎译  名 鬼女艾拉/艾拉
◎片  名 Ayla
◎年  代 2017
◎产  地 美国
◎类  别 科幻 / 惊悚 / 恐怖
◎语  言 英语
◎上映日期 2017-10-06(美国)
◎IMDb评分 3.2/10 from 649 users
◎IMDb链接 https://www.imdb.com/title/tt4044896/
◎豆瓣评分 3.8/10 from 286 users
◎豆瓣链接 https://movie.douban.com/subject/26779129/
◎片  长 86分钟
◎编  剧 Elias
◎主  演 迪·沃伦斯 Dee Wallace
      崔斯坦·瑞斯克 Tristan Risk
      Sarah Schoofs
      小比尔·奥伯斯特 Bill Oberst Jr.
      安德鲁·山斯尼格 Andrew Sensenig

◎标  签 恐怖 | 惊悚 | 美国 | 鬼片 | 情色 | 悬疑 | 美国电影 | 2017

◎简  介

  A man haunted by the mysterious death of his 4-year-old sister brings her back to life thirty years later as an adult woman, with dire consequences.

Video
ID : 1
Format : AVC
Format/Info : Advanced Video Codec
Format profile : [email protected]
Format settings : CABAC / 4 Ref Frames
Format settings, CABAC : Yes
Format settings, Reference frames : 4 frames
Codec ID : V_MPEG4/ISO/AVC
Duration : 1 h 26 min
Bit rate mode : Constant
Bit rate : 6 712 kb/s
Nominal bit rate : 10 000 kb/s
Width : 1 920 pixels
Height : 960 pixels
Display aspect ratio : 2.000
Frame rate mode : Constant
Frame rate : 23.976 (24000/1001/189150) FPS
Color space : YUV
Chroma subsampling : 4:2:0
Bit depth : 8 bits
Scan type : Progressive
Bits/(Pixel*Frame) : 0.152
Stream size : 4.06 GiB (97%)
Default : Yes
Forced : No
Color range : Limited
Color primaries : BT.709
Transfer characteristics : BT.709
Matrix coefficients : BT.709

Audio
ID : 2
Format : E-AC-3
Format/Info : Enhanced AC-3
Commercial name : Dolby Digital Plus
Codec ID : A_EAC3
Duration : 1 h 26 min
Bit rate mode : Constant
Bit rate : 224 kb/s
Channel(s) : 2 channels
Channel layout : L R
Sampling rate : 48.0 kHz
Frame rate : 31.250 FPS (1536 SPF)
Compression mode : Lossy
Stream size : 139 MiB (3%)
Language : English
Service kind : Complete Main
Default : Yes
Forced : No

Text
ID : 3
Format : UTF-8
Codec ID : S_TEXT/UTF8
Codec ID/Info : UTF-8 Plain Text
Duration : 1 h 21 min
Bit rate : 21 b/s
Count of elements : 535
Stream size : 12.7 KiB (0%)
Title : SDH
Language : English
Default : No
Forced : No





1 个附件 售价 大小 下载 时间

Ayla.2017.1080p.AMZN.WEBRip.DDP2.0.x264-MRCS.zip 0 金币 42.66K 3417 次 1月前

#1楼
发帖时间:2021-04-12 19:48:35   |   回复数:1
liyouchai
隐世仙人♂
谢谢楼主分享资源
1月前 #2楼
游客组